Скачать через торрент Затаив дыхание Вдох-выдох Фильм бесплатно в хорошем качестве torrent

Скачивайте на UnionPeer.org фильмы через торрент без регистрации. Новинки кино в хорошем качестве через торрент. На UnionPeer.org можно скачать через торрент фильмы 2014 и 2015 годов. Самые новые фильмы.

Скачать торрент Затаив дыхание Вдох-выдох бесплатно через .torrent фильм мультфильм сериал

Статистика раздачи
Размер:  1.79 GB   |    Зарегистрирован:  4 месяца 9 дней   |    .torrent скачан:  158 раз   |   
Раздают:  1  
   
загрузка...
 
Автор Сообщение

Galfimbul

avatar Galfimbul


Затаив дыхание / Вдох-выдох / Nefes Nefese

Год выпуска: 2018
Страна: Турция
Производство: TMC Film
Жанр: Драма
Серии (количество): 1 (??)
Продолжительность: ~ 2:00:00 каждая серия
Субтитры: Русские

Режиссёр: Угур Юджель / Uğur Yücel

В ролях: Шюкрю Озйылдыз / Şükrü Özyıldız - Юсуф
Мелиса Шенолсун / Melisa Şenolsun - Рюйя
Угур Юджель / Uğur Yücel - Аяз Кыран
Ник Хэлилай / Nik Xhelilaj - Боран
Эзги Шенлер / Ezgi Şenler
Гюльчин Сантырыджыоглу / Gülçin Santırcıoğlu
Дениз Хамзаоглу / Deniz Hamzaoğlu
Шебнем Хассанисоуги / Şebnem Hassanisoughi
Хюлья Дуйар / Hülya Duyar

Описание: История начинается с того, как Рюйя выясняет, что ее мама находится в одной оккупированной деревушке Сирии. Сама она с отцом живет в Берлине, а мать никогда и не видела. Отца обожает, но не знает о темной стороне его натуры. В поисках мамы Рюйя едет в Турцию, где ее пути пересекаются с Юсуфом, который возвращается домой после шестилетнего отсутствия…

Качество: WEBRip (720p)
Формат: MP4
Видео кодек: H.264
Аудио кодек: AAC
Видео: MPEG4 Video (H264) 1278x720 25fps 1962kbps
Аудио: AAC 44100Hz stereo 192kbps
Реклама:
Отсутствует
General
Complete name : G:\Dyhanie.2018.russ.sub.WEBRip720p\Dyhanie.s01.e01.2018.russ.sub.WEBRip720p.mp4
Format : MPEG-4
Format profile : Base Media
Codec ID : isom (isom/iso2/avc1/mp41)
File size : 1.79 GiB
Duration : 1 h 58 min
Overall bit rate : 2 161 kb/s
Writing application : Lavf57.83.100

Video
ID : 1
Format : AVC
Format/Info : Advanced Video Codec
Format profile : [email protected]
Format settings : CABAC / 4 Ref Frames
Format settings, CABAC : Yes
Format settings, ReFrames : 4 frames
Codec ID : avc1
Codec ID/Info : Advanced Video Coding
Duration : 1 h 58 min
Bit rate : 1 980 kb/s
Width : 1 278 pixels
Height : 720 pixels
Display aspect ratio : 16:9
Frame rate mode : Constant
Frame rate : 25.000 FPS
Color space : YUV
Chroma subsampling : 4:2:0
Bit depth : 8 bits
Scan type : Progressive
Bits/(Pixel*Frame) : 0.086
Stream size : 1.63 GiB (91%)
Writing library : x264 core 148
Encoding settings : cabac=1 / ref=2 / deblock=1:0:0 / analyse=0x3:0x113 / me=hex / subme=6 / psy=1 / psy_rd=1.00:0.00 / mixed_ref=1 / me_range=16 / chroma_me=1 / trellis=1 / 8x8dct=1 / cqm=0 / deadzone=21,11 / fast_pskip=1 / chroma_qp_offset=-2 / threads=6 / lookahead_threads=1 / sliced_threads=0 / nr=0 / decimate=1 / interlaced=0 / bluray_compat=0 / constrained_intra=0 / bframes=3 / b_pyramid=2 / b_adapt=1 / b_bias=0 / direct=1 / weightb=1 / open_gop=0 / weightp=1 / keyint=250 / keyint_min=25 / scenecut=40 / intra_refresh=0 / rc_lookahead=30 / rc=2pass / mbtree=1 / bitrate=1980 / ratetol=1.0 / qcomp=0.60 / qpmin=0 / qpmax=69 / qpstep=4 / cplxblur=20.0 / qblur=0.5 / vbv_maxrate=1980 / vbv_bufsize=3960 / nal_hrd=none / filler=0 / ip_ratio=1.40 / aq=1:1.00

Audio
ID : 2
Format : AAC
Format/Info : Advanced Audio Codec
Format profile : LC
Codec ID : mp4a-40-2
Duration : 1 h 58 min
Bit rate mode : Constant
Bit rate : 192 kb/s
Channel(s) : 2 channels
Channel positions : Front: L R
Sampling rate : 44.1 kHz
Frame rate : 43.066 FPS (1024 SPF)
Compression mode : Lossy
Stream size : 163 MiB (9%)
Default : Yes
Alternate group : 1
Предыдущие и альтернативные раздачи

Трекер:  [ 02-Авг-2018 18:18 ]

  

Скачать .torrent

Размер .torrent файла 18 KB


Размер: 1.79 GB
Хэш (hash) релиза: 7d759afb08e7cbeff89c5d18badcfaa62e620a8d
Подписка на обновления:

Еще никто не оставлял запись к записи скачать торрент Затаив дыхание Вдох-выдох . Будь первым!

!Обратная связь